life-is-nice
hola! usted no esta registrado si esta registrado pude conectarse o si no registrarse es gratis

foroactivo life-is-nice
 
ÍndiceFAQBuscarMiembrosGrupos de UsuariosRegistrarseConectarse
Buscar
 
 

Resultados por:
 
Rechercher Búsqueda avanzada
Últimos temas
Navigation
 Portail
 Index
 Membres
 Profil
 FAQ
 Rechercher
Junio 2018
LunMarMiérJueVieSábDom
    123
45678910
11121314151617
18192021222324
252627282930 
CalendarioCalendario
Bookmarking social
Bookmarking social digg  Bookmarking social delicious  Bookmarking social reddit  Bookmarking social stumbleupon  Bookmarking social slashdot  Bookmarking social yahoo  Bookmarking social google  Bookmarking social blogmarks  Bookmarking social live      

Conserva y comparte la dirección de life-is-nice en tu sitio de bookmarking social

Conserva y comparte la dirección de life-is-nice en tu sitio de bookmarking social

Comparte | 
 

 The Wolfman (2010) HD 720p XVID-IMAGiNE <~~ Download Now

Ir abajo 
AutorMensaje
big daddy
Admin
avatar

Mensajes : 148
Puntos : 6401
Reputación : 0
Fecha de inscripción : 26/04/2010
Edad : 23
Localización : morocco-tangier

MensajeTema: The Wolfman (2010) HD 720p XVID-IMAGiNE <~~ Download Now   Dom Mayo 16, 2010 11:42 am

The Wolfman (2010) HD 720p XVID-IMAGiNE <~~ Download Now (getShowthread())



The Wolfman (2010) HD 720p XVID-IMAGiNE

Ripper ...........: IMAGiNE
IMDB Rating.......:6.8/10
Video Codec.......: XVID
Release Date......:06/03/10
Audio Codec.......:MP3
Theatre Date......:12/02/10
Audio Bitrate.....:128
Runtime.......:1h 36mn
Subtitles.........:ENG When needed
Language..........:ENGLISH
Resolution...... 720 x 368
IMDb URL
Código:
http://www.imdb.com/title/tt0780653/

Video
ID : 0
Format : MPEG-4 Visual
Format profile : Advanced Simple@L5
Format settings, BVOP : Yes
Format settings, QPel : No
Format settings, GMC : No warppoints
Format settings, Matrix : Default (MPEG)
Muxing mode : Packed bitstream
Codec ID : XVID
Codec ID/Hint : XviD
Duration : 1h 36mn
Bit rate : 1 906 Kbps
Width : 720 pixels
Height : 368 pixels
Display aspect ratio : 1.957
Frame rate : 23.976 fps
Resolution : 24 bits
Colorimetry : 4:2:0
Scan type : Progressive
Bits/(Pixel*Frame) : 0.300
Stream size : 1.28 GiB (93%)
Writing library : XviD 1.2.1 (UTC 2008-12-04)

Audio
ID : 1
Format : MPEG Audio
Format version : Version 1
Format profile : Layer 3
Codec ID : 55
Codec ID/Hint : MP3
Duration : 1h 36mn
Bit rate mode : Constant
Bit rate : 128 Kbps
Channel(s) : 2 channels
Sampling rate : 44.1 KHz
Resolution : 16 bits
Stream size : 88.1 MiB (6%)
Alignment : Split accross interleaves
Interleave, duration : 42 ms (1.00 video frame)
Interleave, preload duration : 500 ms








Código:
hotfile.com/list/410063/1da2de4


Thank you for downloading and reading this article
Have fun to all !!!
Volver arriba Ir abajo
Ver perfil de usuario http://life-is-nice.los-foros.es
 
The Wolfman (2010) HD 720p XVID-IMAGiNE <~~ Download Now
Volver arriba 
Página 1 de 1.
 Temas similares
-
» NUEVAS PREGUNTAS INEGI 2010.
» Reporte 2° Regional Guadalajara 2010
» TRIAL EXHIBICION LAS CUEVECITAS (tenerife... 21-11-2010)
» Otakrismas 2010
» anime 2010

Permisos de este foro:No puedes responder a temas en este foro.
life-is-nice :: [vostfr] :: peliculas-
Cambiar a: